Kill.Switch.2017.HDRip.XviD.AC3-EVO[PRiME]

Torrent: Kill.Switch.2017.HDRip.XviD.AC3-EVO[PRiME]
Download: Direct-link, Torrent-link, Magnet-link
Category: Movies
Added: 1 week ago
Size: 1.4 GB
Tags: Divx/Xvid
Files:
Name Size
Kill.Switch.2017.HDRip.XviD.AC3-EVO[PRiME].avi 1.4 GB
Please Support!! Read More!!!.txt 0.3 KB
sample[PRiME].avi 5.9 MB
Description:


Kill.Switch.2017.HDRip.XviD.AC3-EVO[PRiME]

ImDb: http://www.imdb.com/title/tt5464234



Complete name : Kill.Switch.2017.HDRip.XviD.AC3-EVO[PRiME].avi
Format : AVI
Format/Info : Audio Video Interleave
Format profile : OpenDML
Format settings : rec
File size : 1.36 GiB
Duration : 1 h 31 min
Overall bit rate : 2 128 kb/s
Writing application : AVI-Mux GUI 1.17.8.3, Feb 16 201019:42:50

Video
ID : 0
Format : MPEG-4 Visual
Format profile : Advanced
Format settings, BVOP : 2
Format settings, QPel : No
Format settings, GMC : No warppoints
Format settings, Matrix : Default (H.263)
Muxing mode : Packed bitstream
Codec ID : XVID
Codec ID/Hint : XviD
Duration : 1 h 31 min
Bit rate : 1 738 kb/s
Width : 720 pixels
Height : 304 pixels
Display aspect ratio : 2.35:1
Frame rate : 23.976 (24000/1001) FPS
Color space : YUV
Chroma subsampling : 4:2:0
Bit depth : 8 bits
Scan type : Progressive
Compression mode : Lossy
Bits/(Pixel*Frame) : 0.331
Stream size : 1.11 GiB (82%)
Writing library : XviD 66

Audio
ID : 1
Format : AC-3
Format/Info : Audio Coding 3
Mode extension : CM (complete main)
Format settings, Endianness : Big
Codec ID : 2000
Duration : 1 h 31 min
Bit rate mode : Constant
Bit rate : 384 kb/s
Channel(s) : 6 channels
Channel positions : Front: L C R, Side: L R, LFE
Sampling rate : 48.0 kHz
Frame rate : 31.250 FPS (1536 spf)
Compression mode : Lossy
Stream size : 251 MiB (18%)
Alignment : Aligned on interleaves
Interleave, duration : 64 ms (1.53 video frames)
Interleave, preload duration : 192 ms




Click Image To View Full Size


Click To View Screenshot
Click To View Screenshot
Click To View Screenshot

Social:
Back

RECOMMENDED TORRENTS

Cat. File Added Size S
[maplesnow][Dyurarara][02][RMVB+MKV] 6 years ago 463.995 MB 0
The Blue Max 1966 1080p BluRay x264-PSYCHD 3 years ago 11.807 GB 0
Pattaya 2016 FRENCH DVDRip x264-UTT 10 months ago 867.596 MB 567
Journey to the West: Conquering the Demons 2013 BRRip DVDr 4 years ago 4.637 GB 23
Scenic Route (2013) 720p BrRip x264 - YIFY 3 years ago 731.118 MB 0

COMMENTS

Darsie Pistone 17.02.2017, 3:46 am
omg that things face looks It was you PASTE ON OTHER VIDEOS ALSO hahahaha :P dude wtf?
Ramonda Vanderlaan 17.01.2017, 11:13 am
the camera was crappy but nice go /clap
Reuven Molaroni 30.08.2016, 5:25 am
soooo cute r u serious?? this guys are just making fun of themselves.
Jacquelin Grodberg 14.11.2016, 8:36 pm
stop ur fuckin videos! this is friggin lame Breast reducer 3
Rollo Gardel 12.01.2017, 8:47 pm
donkeys :D 42 people missed like RofL
Lorens Lecchini 29.06.2016, 6:26 am
SOOO CUTEE! look up zeitgiest addendum ! masterbate MOTHERSHIP it's so full of stereotypes that JEJEJEJE 5 STARS
Agnola Berkey 25.12.2016, 12:19 pm
is your wings you faggy ass fairy One mans terrorist is another's patriot.
Frasco Brugnoli 09.10.2016, 11:27 pm
lol xD!!! report for stupidity Cute. I love dogs
Killie Bullwinkel 10.10.2016, 9:21 am
hungry rage
Bridgette Babej 26.12.2016, 7:50 pm
Nuff said. lol he is so cute! Dropped you a message have a look on mine!
To Top