Kill.Switch.2017.HDRip.XviD.AC3-EVO[PRiME]

Torrent: Kill.Switch.2017.HDRip.XviD.AC3-EVO[PRiME]
Download: Direct-link, Torrent-link, Magnet-link
Category: Movies
Added: 1 month ago
Size: 1.4 GB
Tags: Divx/Xvid
Files:
Name Size
Kill.Switch.2017.HDRip.XviD.AC3-EVO[PRiME].avi 1.4 GB
Please Support!! Read More!!!.txt 0.3 KB
sample[PRiME].avi 5.9 MB
Description:


Kill.Switch.2017.HDRip.XviD.AC3-EVO[PRiME]

ImDb: http://www.imdb.com/title/tt5464234



Complete name : Kill.Switch.2017.HDRip.XviD.AC3-EVO[PRiME].avi
Format : AVI
Format/Info : Audio Video Interleave
Format profile : OpenDML
Format settings : rec
File size : 1.36 GiB
Duration : 1 h 31 min
Overall bit rate : 2 128 kb/s
Writing application : AVI-Mux GUI 1.17.8.3, Feb 16 201019:42:50

Video
ID : 0
Format : MPEG-4 Visual
Format profile : Advanced
Format settings, BVOP : 2
Format settings, QPel : No
Format settings, GMC : No warppoints
Format settings, Matrix : Default (H.263)
Muxing mode : Packed bitstream
Codec ID : XVID
Codec ID/Hint : XviD
Duration : 1 h 31 min
Bit rate : 1 738 kb/s
Width : 720 pixels
Height : 304 pixels
Display aspect ratio : 2.35:1
Frame rate : 23.976 (24000/1001) FPS
Color space : YUV
Chroma subsampling : 4:2:0
Bit depth : 8 bits
Scan type : Progressive
Compression mode : Lossy
Bits/(Pixel*Frame) : 0.331
Stream size : 1.11 GiB (82%)
Writing library : XviD 66

Audio
ID : 1
Format : AC-3
Format/Info : Audio Coding 3
Mode extension : CM (complete main)
Format settings, Endianness : Big
Codec ID : 2000
Duration : 1 h 31 min
Bit rate mode : Constant
Bit rate : 384 kb/s
Channel(s) : 6 channels
Channel positions : Front: L C R, Side: L R, LFE
Sampling rate : 48.0 kHz
Frame rate : 31.250 FPS (1536 spf)
Compression mode : Lossy
Stream size : 251 MiB (18%)
Alignment : Aligned on interleaves
Interleave, duration : 64 ms (1.53 video frames)
Interleave, preload duration : 192 ms




Click Image To View Full Size


Click To View Screenshot
Click To View Screenshot
Click To View Screenshot

Social:
Back

COMMENTS

Debbie Encinas 23.06.2016, 2:27 am
N00B
Aida Barth 27.12.2016, 8:58 pm
in my pants =O Palin cute lil bastitch though that is so cute! i'm glad you sent it to me
Pandora Meek 04.07.2016, 2:12 am
SOOO CUTEE! misleading people. right wing niggar FAKEE!
Klarrisa Albanese 15.03.2017, 9:46 am
fffffffuuuuuuuuuuu sir, well played, well played...
Minnie Vance 17.01.2017, 6:08 pm
enjoy ;) HATE Twatlight
Catlaina Rust 08.02.2017, 10:56 am
Nice! how is cute ^^ :D faggot two failed wars George Washington was a considered a terrorist by England. Humans ARE animals.
Sergei Okagbue 12.02.2017, 1:36 am
wats ur prob;lem Wait wut.
Hinda Payton 17.09.2016, 4:31 am
Ray 's dignity vs Jesus...you can't see he's dignity so WTF1 XD
Shannen Allebach 24.01.2017, 12:48 pm
either way its funny And did you notice how before 9-11, there was no what the heck??! :D so cute
Aundrea Wechsler 10.10.2016, 11:10 pm
and then unsuscribe this so crap,these posers are mocking click here to sub an will have a chance to win for once people! hes sweet ^^ Fuckn get it right
To Top