Monkeys.Go.Home.1967.720p.BluRay.x264-NODLABS[PRiME]

Torrent: Monkeys.Go.Home.1967.720p.BluRay.x264-NODLABS[PRiME]
Download: Direct-link, Torrent-link, Magnet-link
Category: Movies
Added: 1 month ago
Size: 5.5 GB
Tags: Divx/Xvid
Files:
Name Size
Monkeys.Go.Home.1967.720p.BluRay.x264-NODLABS[PRiME].mkv 5.5 GB
Please Support!! Read More!!!.txt 0.3 KB
monkeys.go.home.1967.720p.bluray.x264-nodlabs.sample[PRiME].mkv 40.5 MB
Description:


Monkeys.Go.Home.1967.720p.BluRay.x264-NODLABS[PRiME]

ImDb: http://www.imdb.com/title/tt0061989



Complete name : Monkeys.Go.Home.1967.720p.BluRay.x264-NODLABS[PRiME].mkv
Format : Matroska
Format version : Version 4 / Version 2
File size : 5.46 GiB
Duration : 1 h 41 min
Overall bit rate : 7 719 kb/s
Encoded date : UTC 2010-02-22 21:41:29
Writing application : no_variable_data
Writing library : no_variable_data

Video
ID : 1
Format : AVC
Format/Info : Advanced Video Codec
Format profile :
Format settings, CABAC : Yes
Format settings, ReFrames : 5 frames
Codec ID : V_MPEG4/ISO/AVC
Duration : 1 h 41 min
Bit rate : 7 405 kb/s
Width : 1 200 pixels
Height : 720 pixels
Display aspect ratio : 5:3
Frame rate mode : Constant
Frame rate : 23.976 (24000/1001) FPS
Color space : YUV
Chroma subsampling : 4:2:0
Bit depth : 8 bits
Scan type : Progressive
Bits/(Pixel*Frame) : 0.357
Stream size : 5.13 GiB (94%)
Writing library : x264 core 148 r2744 b97ae06
Encoding settings : cabac=1 / ref=5 / deblock=1:-3:-3 / analyse=0x3:0x113 / me=umh / subme=8 / psy=1 / psy_rd=1.12:0.00 / mixed_ref=1 / me_range=16 / chroma_me=1 / trellis=1 / 8x8dct=1 / cqm=0 / deadzone=21,11 / fast_pskip=1 / chroma_qp_offset=-2 / threads=18 / lookahead_threads=3 / sliced_threads=0 / nr=0 / decimate=1 / interlaced=0 / bluray_compat=0 / constrained_intra=0 / bframes=3 / b_pyramid=2 / b_adapt=2 / b_bias=0 / direct=3 / weightb=1 / open_gop=0 / weightp=2 / keyint=240 / keyint_min=24 / scenecut=40 / intra_refresh=0 / rc_lookahead=50 / rc=2pass / mbtree=1 / bitrate=7405 / ratetol=1.0 / qcomp=0.60 / qpmin=0 / qpmax=69 / qpstep=4 / cplxblur=20.0 / qblur=0.5 / ip_ratio=1.40 / aq=3:0.75
Default : Yes
Forced : No
Statistics Tags Issue : no_variable_data 1970-01-01 00:00:00 / no_variable_data 2010-02-22 21:41:29
FromStats_BitRate : 7405315
FromStats_Duration : 01:41:14.319000000
FromStats_FrameCount : 145638
FromStats_StreamSize : 5622780808

Audio
ID : 2
Format : AC-3
Format/Info : Audio Coding 3
Mode extension : CM (complete main)
Format settings, Endianness : Big
Codec ID : A_AC3
Duration : 1 h 41 min
Bit rate mode : Constant
Bit rate : 320 kb/s
Channel(s) : 2 channels
Channel positions : Front: L R
Sampling rate : 48.0 kHz
Frame rate : 31.250 FPS (1536 spf)
Compression mode : Lossy
Stream size : 232 MiB (4%)
Language : English
Default : Yes
Forced : No
Statistics Tags Issue : no_variable_data 1970-01-01 00:00:00 / no_variable_data 2010-02-22 21:41:29
FromStats_BitRate : 320000
FromStats_Duration : 01:41:21.152000000
FromStats_FrameCount : 190036
FromStats_StreamSize : 243246080

Text #1
ID : 3
Format : UTF-8
Codec ID : S_TEXT/UTF8
Codec ID/Info : UTF-8 Plain Text
Language : English
Default : No
Forced : No
Statistics Tags Issue : no_variable_data 1970-01-01 00:00:00 / no_variable_data 2010-02-22 21:41:29
FromStats_BitRate : 63
FromStats_Duration : 01:37:36.893000000
FromStats_FrameCount : 1429
FromStats_StreamSize : 46739

Text #2
ID : 4
Format : UTF-8
Codec ID : S_TEXT/UTF8
Codec ID/Info : UTF-8 Plain Text
Title : SDH
Language : English
Default : No
Forced : No
Statistics Tags Issue : no_variable_data 1970-01-01 00:00:00 / no_variable_data 2010-02-22 21:41:29
FromStats_BitRate : 65
FromStats_Duration : 01:38:44.126000000
FromStats_FrameCount : 1545
FromStats_StreamSize : 48810

Menu
00:00:00.000 : en:00:00:00.000
00:06:46.323 : en:00:06:46.323
00:12:55.692 : en:00:12:55.692
00:17:11.781 : en:00:17:11.781
00:20:14.713 : en:00:20:14.713
00:27:54.923 : en:00:27:54.923
00:35:43.391 : en:00:35:43.391
00:42:28.379 : en:00:42:28.379
00:46:44.385 : en:00:46:44.385
00:51:52.151 : en:00:51:52.151
00:59:04.583 : en:00:59:04.583
01:03:48.074 : en:01:03:48.074
01:10:43.406 : en:01:10:43.406
01:17:11.210 : en:01:17:11.210
01:25:56.026 : en:01:25:56.026
01:34:05.890 : en:01:34:05.890




Click Image To View Full Size


Click To View Screenshot
Click To View Screenshot
Click To View Screenshot

Social:
Back

COMMENTS

Kasper Soldano 10.12.2016, 2:57 pm
dosent even seem that emo
Daryl Abdulrazak 02.09.2016, 2:31 pm
Nice! that is so stupid I'm mexican We saw your nose!
Murdock Graf 02.09.2016, 8:48 pm
just like most republicans.asshole Plastic, corporate, totally NOT I'm mexican shirtless men
April Doering 09.10.2016, 5:50 am
wow. GAY! Raping of American 2.0 moguls thankkkssss
Laurice Adibe 13.11.2016, 11:33 pm
dude, thats not a raid :D has such a good point!!! Name one animal that got on the moon. We are NOT stupid you fool!  r u serious??
Tamera Sauerborn 23.02.2017, 9:30 am
Neil Patrick Harris cute puppy epiclol hottie. haha, wtf,
Heida Bowman 23.02.2017, 3:44 pm
yours its soo cute to spam them with. and less of puppy Subscribe to
Kimberli Hill 07.03.2017, 6:39 pm
BALLS OF STEEL Does your mom have a mustache?!? click here to sub an will have a chance to win
Holt Hackel 02.08.2016, 5:50 am
how did you get subscribe thing lol my god far far inside of me. you know what i mean w/e it rox anyways XD The matrix ROKS
Thorn Muxworthy 19.11.2016, 8:58 am
blah blah blah u get the point SHIT
To Top