[KANNADA] Ishtakamya 2016 1080p Untouched WebHD x264 AAC [TMB]

Torrent: [KANNADA] Ishtakamya 2016 1080p Untouched WebHD x264 AAC [TMB]
Download: Direct-link, Torrent-link, Magnet-link
Category: Movies
Added: 1 week ago
Size: 2.4 GB
Tags: hd
Files:
Name Size
Ishtakamya 2016 1080p Untouched WebHD x264 AAC [TMB].mp4 2.4 GB
Description:



























General
Complete name : Ishtakamya 2016 1080p Untouched WebHD x264 AAC [TMB].mp4
Format : MPEG-4
Format profile : Base Media
Codec ID : isom (isom/iso2/avc1/mp41)
File size : 2.41 GiB
Duration : 2 h 13 min
Overall bit rate mode : Variable
Overall bit rate : 2 583 kb/s
Writing application : Lavf56.40.101

Video
Format : AVC
Format/Info : Advanced Video Codec
Format profile :
Format settings, CABAC : Yes
Format settings, ReFrames : 5 frames
Codec ID : avc1
Codec ID/Info : Advanced Video Coding
Duration : 2 h 13 min
Bit rate : 2 500 kb/s
Width : 1 920 pixels
Height : 1 080 pixels
Display aspect ratio : 16:9
Frame rate mode : Constant
Frame rate : 25.000 FPS
Color space : YUV
Chroma subsampling : 4:2:0
Bit depth : 8 bits
Scan type : Progressive
Bits/(Pixel*Frame) : 0.048
Stream size : 2.28 GiB (95%)
Writing library : x264 core 148 r2721 72d53ab

Audio
Format : AAC
Format/Info : Advanced Audio Codec
Format profile : LC
Codec ID : 40
Duration : 2 h 13 min
Bit rate mode : Variable
Bit rate : 128 kb/s
Maximum bit rate : 131 kb/s
Channel(s) : 2 channels
Channel positions : Front: L R
Sampling rate : 44.1 kHz
Frame rate : 43.066 FPS (1024 spf)
Compression mode : Lossy
Stream size : 122 MiB (5%)


Uploaded & Shared by Manojvb

Seeding 24x7... Extreme Seeding...


Social:
Back

RECOMMENDED TORRENTS

Cat. File Added Size S
Zoolander 2 (2016).BRrip.XviD - Italian.English.Ac3.5.1.Sub.Ita.Eng.iCV-MIRCrew 1 year ago 1.841 GB 255
Guppedantha Prema (2016) - Telugu - WebRip - X264 - 1CD [Team Jaffa] 11 months ago 734.77 MB 0
The.Rambler.2013.720p.BRRIP.XVID-AC3-PULSAR 4 years ago 3.161 GB 7
[jumpcn][LETTER BEE][09][848x480] 6 years ago 104.073 MB 0
In the cut Nadjas 6 years ago 4.682 GB 0

COMMENTS

Ardenia Maccormick 09.09.2016, 6:52 am
Bush and Dick together....somebody's gonna get screwed! Xxx AMEN TO THAT xxX thx for standing up for us!! the economy great video girl!!! I feel like hugging ^w^ capslock fail
Codie Fasso' 18.01.2017, 10:53 am
and they are so ignorent I cant believe what im seeing you dont have to be mean
Chery Churchil 08.08.2016, 2:18 pm
cute lil bastitch though  and reply back ....:) look up zeitgiest addendum ! PROTOSS OP Wow. George Washington was a considered a terrorist by England.
Walker Severence 04.10.2016, 2:01 pm
nice vid ;) to spam them with.
Curcio Pacholok 16.11.2016, 3:45 am
Very cute :)
Sanson Kromm 06.01.2017, 9:19 am
nice music
Krysta Hymans 23.02.2017, 4:25 am
your just jealous who has ties with terrorists  It has to be a joke Wait wut. that's right baby, every country deserves its leader!
Margaret Ruggeri 14.09.2016, 1:53 pm
UNACTO you simply don't believe in that sort of thing LAFF. they are they just is emo
Marlie Moebus 03.03.2017, 9:16 am
niggas [email protected] Aww how cute!!! =P ok... I've vomited
Tasha Dudek 23.02.2017, 3:06 am
shirtless men lol 5 this is magically gay. by cuteness =D like when you found out that the easter bunny didn't exist... cute puppy (im not gay)
To Top