Get.the.Girl.2017.1080p.BluRay.x264-JustWatch

Torrent: Get.the.Girl.2017.1080p.BluRay.x264-JustWatch
Download: Direct-link, Torrent-link, Magnet-link
Category: Movies
Added: 12 minutes ago
Size: 6.6 GB
Tags: hd
Files:
Name Size
get.the.girl.2017.1080p.bluray.x264-justwatch.mkv 6.6 GB
get.the.girl.2017.1080p.bluray.x264-justwatch.nfo 0.2 KB
Description:

Get.the.Girl.2017.1080p.BluRay.x264-JustWatch

ImDb: http://www.imdb.com/title/tt4045894



Complete name : get.the.girl.2017.1080p.bluray.x264-justwatch.mkv
Format : Matroska
Format version : Version 2
File size : 6.56 GiB
Duration : 1 h 27 min
Overall bit rate : 10.7 Mb/s
Writing application : mkvmerge v4.1.1 ('Bouncin' Back') built on Jul 3 2010 22:54:08
Writing library : libebml v1.0.0 + libmatroska v1.0

Video
ID : 1
Format : AVC
Format/Info : Advanced Video Codec
Format profile :
Format settings, CABAC : Yes
Format settings, ReFrames : 5 frames
Codec ID : V_MPEG4/ISO/AVC
Duration : 1 h 27 min
Bit rate : 9 200 kb/s
Width : 1 920 pixels
Height : 800 pixels
Display aspect ratio : 2.40:1
Frame rate mode : Constant
Frame rate : 23.976 (24000/1001) FPS
Color space : YUV
Chroma subsampling : 4:2:0
Bit depth : 8 bits
Scan type : Progressive
Bits/(Pixel*Frame) : 0.250
Stream size : 5.50 GiB (84%)
Writing library : x264 core 152 r2851 ba24899
Encoding settings : cabac=1 / ref=5 / deblock=1:-2:-2 / analyse=0x3:0x113 / me=umh / subme=8 / psy=1 / psy_rd=1.00:0.00 / mixed_ref=1 / me_range=16 / chroma_me=1 / trellis=2 / 8x8dct=1 / cqm=0 / deadzone=21,11 / fast_pskip=1 / chroma_qp_offset=-2 / threads=12 / lookahead_threads=2 / sliced_threads=0 / nr=0 / decimate=1 / interlaced=0 / bluray_compat=0 / constrained_intra=0 / bframes=3 / b_pyramid=2 / b_adapt=2 / b_bias=0 / direct=3 / weightb=1 / open_gop=0 / weightp=2 / keyint=240 / keyint_min=24 / scenecut=40 / intra_refresh=0 / rc_lookahead=50 / rc=2pass / mbtree=1 / bitrate=9200 / ratetol=1.0 / qcomp=0.60 / qpmin=0 / qpmax=69 / qpstep=4 / cplxblur=20.0 / qblur=0.5 / ip_ratio=1.40 / aq=1:1.00
Language : English
Default : Yes
Forced : No

Audio
ID : 2
Format : DTS
Format/Info : Digital Theater Systems
Mode : 16
Format settings, Endianness : Big
Codec ID : A_DTS
Duration : 1 h 27 min
Bit rate mode : Constant
Bit rate : 1 509 kb/s
Channel(s) : 6 channels
Channel positions : Front: L C R, Side: L R, LFE
Sampling rate : 48.0 kHz
Frame rate : 93.750 FPS (512 spf)
Bit depth : 24 bits
Compression mode : Lossy
Stream size : 946 MiB (14%)
Language : English
Default : Yes
Forced : No

Menu
00:00:00.000 : en:00:00:00.000
00:07:06.843 : en:00:07:06.843
00:14:22.612 : en:00:14:22.612
00:23:30.284 : en:00:23:30.284
00:28:57.277 : en:00:28:57.277
00:36:36.569 : en:00:36:36.569
00:46:11.018 : en:00:46:11.018
00:56:25.882 : en:00:56:25.882
01:03:31.474 : en:01:03:31.474
01:10:36.732 : en:01:10:36.732
01:18:14.565 : en:01:18:14.565
01:23:59.159 : en:01:23:59.159






Click To View Screenshot

Click To View Screenshot

Click To View Screenshot

Social:
Back

COMMENTS

Kasper Soldano 10.12.2016, 2:57 pm
dosent even seem that emo
Daryl Abdulrazak 02.09.2016, 2:31 pm
Nice! that is so stupid I'm mexican We saw your nose!
Murdock Graf 02.09.2016, 8:48 pm
just like most republicans.asshole Plastic, corporate, totally NOT I'm mexican shirtless men
April Doering 09.10.2016, 5:50 am
wow. GAY! Raping of American 2.0 moguls thankkkssss
Laurice Adibe 13.11.2016, 11:33 pm
dude, thats not a raid :D has such a good point!!! Name one animal that got on the moon. We are NOT stupid you fool!  r u serious??
Tamera Sauerborn 23.02.2017, 9:30 am
Neil Patrick Harris cute puppy epiclol hottie. haha, wtf,
Heida Bowman 23.02.2017, 3:44 pm
yours its soo cute to spam them with. and less of puppy Subscribe to
Kimberli Hill 07.03.2017, 6:39 pm
BALLS OF STEEL Does your mom have a mustache?!? click here to sub an will have a chance to win
Holt Hackel 02.08.2016, 5:50 am
how did you get subscribe thing lol my god far far inside of me. you know what i mean w/e it rox anyways XD The matrix ROKS
Thorn Muxworthy 19.11.2016, 8:58 am
blah blah blah u get the point SHIT
To Top