Get.the.Girl.2017.BRRip.XviD.AC3-EVO

Torrent: Get.the.Girl.2017.BRRip.XviD.AC3-EVO
Download: Direct-link, Torrent-link, Magnet-link
Category: Movies
Added: 13 minutes ago
Size: 1.4 GB
Tags: Divx/Xvid
Files:
Name Size
Get.the.Girl.2017.BRRip.XviD.AC3-EVO.avi 1.2 GB
Get.the.Girl.2017.BRRip.XviD.AC3-EVO.nfo 0.7 KB
sample.avi 158.1 MB
Description:

Get.the.Girl.2017.BRRip.XviD.AC3-EVO

ImDb: http://www.imdb.com/title/tt4045894



Complete name : Get.the.Girl.2017.BRRip.XviD.AC3-EVO.avi
Format : AVI
Format/Info : Audio Video Interleave
Format profile : OpenDML
Format settings : rec
File size : 1.24 GiB
Duration : 1 h 27 min
Overall bit rate : 2 023 kb/s
Writing application : AVI-Mux GUI 1.17.8.3, Feb 16 201019:42:50

Video
ID : 0
Format : MPEG-4 Visual
Format profile : Advanced
Format settings, BVOP : 2
Format settings, QPel : No
Format settings, GMC : No warppoints
Format settings, Matrix : Default (H.263)
Muxing mode : Packed bitstream
Codec ID : XVID
Codec ID/Hint : XviD
Duration : 1 h 27 min
Bit rate : 1 570 kb/s
Width : 720 pixels
Height : 300 pixels
Display aspect ratio : 2.40:1
Frame rate : 23.976 (24000/1001) FPS
Color space : YUV
Chroma subsampling : 4:2:0
Bit depth : 8 bits
Scan type : Progressive
Compression mode : Lossy
Bits/(Pixel*Frame) : 0.303
Stream size : 984 MiB (78%)
Writing library : XviD 66

Audio
ID : 1
Format : AC-3
Format/Info : Audio Coding 3
Format settings, Endianness : Big
Codec ID : 2000
Duration : 1 h 27 min
Bit rate mode : Constant
Bit rate : 448 kb/s
Channel(s) : 6 channels
Channel positions : Front: L C R, Side: L R, LFE
Sampling rate : 48.0 kHz
Frame rate : 31.250 FPS (1536 spf)
Bit depth : 16 bits
Compression mode : Lossy
Stream size : 281 MiB (22%)
Alignment : Aligned on interleaves
Interleave, duration : 64 ms (1.53 video frames)
Interleave, preload duration : 192 ms
Service kind : Complete Main






Click To View Screenshot

Click To View Screenshot

Click To View Screenshot

Social:
Back

COMMENTS

Kasper Soldano 10.12.2016, 2:57 pm
dosent even seem that emo
Daryl Abdulrazak 02.09.2016, 2:31 pm
Nice! that is so stupid I'm mexican We saw your nose!
Murdock Graf 02.09.2016, 8:48 pm
just like most republicans.asshole Plastic, corporate, totally NOT I'm mexican shirtless men
April Doering 09.10.2016, 5:50 am
wow. GAY! Raping of American 2.0 moguls thankkkssss
Laurice Adibe 13.11.2016, 11:33 pm
dude, thats not a raid :D has such a good point!!! Name one animal that got on the moon. We are NOT stupid you fool!  r u serious??
Tamera Sauerborn 23.02.2017, 9:30 am
Neil Patrick Harris cute puppy epiclol hottie. haha, wtf,
Heida Bowman 23.02.2017, 3:44 pm
yours its soo cute to spam them with. and less of puppy Subscribe to
Kimberli Hill 07.03.2017, 6:39 pm
BALLS OF STEEL Does your mom have a mustache?!? click here to sub an will have a chance to win
Holt Hackel 02.08.2016, 5:50 am
how did you get subscribe thing lol my god far far inside of me. you know what i mean w/e it rox anyways XD The matrix ROKS
Thorn Muxworthy 19.11.2016, 8:58 am
blah blah blah u get the point SHIT
To Top