Ezra (2017) Malayalam DVDRip x264 AAC 5.1 ESub MBRHDRG

Torrent: Ezra (2017) Malayalam DVDRip x264 AAC 5.1 ESub MBRHDRG
Download: Torrent-link, Magnet-link
Category: Movies
Poster: Ezra (2017) Malayalam DVDRip x264 AAC 5.1 ESub MBRHDRG
Added: 3 days ago
Size: 834.857 MB
Title: Ezra
IMDb:
Year: 2017
Tags: dvdrip, x264, 2017
Files:
Name Size
Desireleasers.com.url 110 B
Ezra (2017) Malayalam DVDRip x264 AAC 5.1 E-Sub-MBRHDRG.mkv 834.857 MB
Description:
Source: Desireleasers.com 

Ripper: MBRHDRG 

MediaInfo

Format : Matroska 
Format version : Version 2 
File size : 796 MiB 
Duration : 2 h 24 min 
Overall bit rate : 771 kb/s 
Video 
ID : 1 
Format : AVC 
Format/Info : Advanced Video Codec 
Format profile : [email protected] 
Format settings, CABAC : Yes 
Format settings, ReFrames : 4 frames 
Codec ID : V_MPEG4/ISO/AVC 
Duration : 2 h 24 min 
Bit rate : 579 kb/s 
Width : 720 pixels 
Height : 288 pixels 
Display aspect ratio : 2.500 
Frame rate mode : Constant 
Frame rate : 23.976 (24000/1001) FPS 
Color space : YUV 
Chroma subsampling : 4:2:0 
Bit depth : 8 bits 
Scan type : Progressive 
Bits/(Pixel*Frame) : 0.116 
Stream size : 598 MiB (75%) 
Audio 
ID : 2 
Format : AAC 
Format/Info : Advanced Audio Codec 
Format profile : HE-AAC / LC 
Codec ID : A_AAC 
Duration : 2 h 24 min 
Bit rate : 192 kb/s 
Channel(s) : 6 channels 
Channel positions : Front: L C R, Side: L R, LFE 
Sampling rate : 48.0 kHz / 24.0 kHz 
Frame rate : 23.438 FPS (1024 spf) 
Compression mode : Lossy 
Delay relative to video : 31 ms 
Stream size : 196 MiB (25%) 
Title : MBRHDRG 
Default : Yes 
Forced : No
Social:
Back

RECOMMENDED TORRENTS

Cat. File Added Size S
Seven Ways from Sundown (Western 1960) A. Murphy 720p 2 years ago 997.424 MB 2
[NTi]_Click.DVDRip.XViD-FEAR 6 years ago 730.037 MB 0
Babe in Fishnets Masturbating with Cucumber.zip 6 years ago 8.561 MB 0
Velvet Goldmine 1998 BRRip XviD MP3-RARBG 9 months ago 1.605 GB 0
Honeyglue 2016 HDRip XviD-EVO 10 months ago 1.5 GB 45

COMMENTS

Britt Christoffersen 29.08.2016, 6:01 pm
D: cute!! :) above your name box thing lol
Betta Fein 14.07.2016, 8:42 am
and you are right about the rest. lying hypocrite cool video Very cute :) youmasturbating piece of shit! pedo bear
Dale Wepsic 18.07.2016, 2:22 pm
during times like this i think im getting of of these :O
Addy Monte 06.09.2016, 1:53 am
Shark Ke bello *-* 2 girls 1 no one can take it seriously.
Staford Kuris 05.09.2016, 8:04 pm
everyone have their own life to live... me too... my dogs can do that
Shelbi Engelhart 02.11.2016, 11:23 pm
Thank you. i guess u guys hav nothin else better 2 do
Adora Vaillant 11.10.2016, 9:26 pm
Your so mean ahhhhhhhhhhhhh sailor of the ship somehow that's not going to happen when
Pauletta Abelson 07.09.2016, 11:27 pm
OMG5 stars
Guillema Eden 08.11.2016, 7:17 pm
How is this news? Extra sensitive and highly emotional...? i like your jacket, where'd you get it
Carling Stefansson 13.12.2016, 7:34 pm
emos rule ( i am one) We are NOT stupid you fool!  kool just as cute... UNATCO CONTROLS THE AMBROSIA
To Top