Ezra (2017) Malayalam DVDRip x264 AAC 5.1 ESub MBRHDRG

Torrent: Ezra (2017) Malayalam DVDRip x264 AAC 5.1 ESub MBRHDRG
Download: Direct-link, Torrent-link, Magnet-link
Category: Movies
Poster: Ezra (2017) Malayalam DVDRip x264 AAC 5.1 ESub MBRHDRG
Added: 2 months ago
Size: 834.857 MB
Title: Ezra
IMDb:
Year: 2017
Tags: dvdrip, x264, 2017
Files:
Name Size
Desireleasers.com.url 110 B
Ezra (2017) Malayalam DVDRip x264 AAC 5.1 E-Sub-MBRHDRG.mkv 834.857 MB
Description:
Source: Desireleasers.com 

Ripper: MBRHDRG 

MediaInfo

Format : Matroska 
Format version : Version 2 
File size : 796 MiB 
Duration : 2 h 24 min 
Overall bit rate : 771 kb/s 
Video 
ID : 1 
Format : AVC 
Format/Info : Advanced Video Codec 
Format profile : High@L4.1 
Format settings, CABAC : Yes 
Format settings, ReFrames : 4 frames 
Codec ID : V_MPEG4/ISO/AVC 
Duration : 2 h 24 min 
Bit rate : 579 kb/s 
Width : 720 pixels 
Height : 288 pixels 
Display aspect ratio : 2.500 
Frame rate mode : Constant 
Frame rate : 23.976 (24000/1001) FPS 
Color space : YUV 
Chroma subsampling : 4:2:0 
Bit depth : 8 bits 
Scan type : Progressive 
Bits/(Pixel*Frame) : 0.116 
Stream size : 598 MiB (75%) 
Audio 
ID : 2 
Format : AAC 
Format/Info : Advanced Audio Codec 
Format profile : HE-AAC / LC 
Codec ID : A_AAC 
Duration : 2 h 24 min 
Bit rate : 192 kb/s 
Channel(s) : 6 channels 
Channel positions : Front: L C R, Side: L R, LFE 
Sampling rate : 48.0 kHz / 24.0 kHz 
Frame rate : 23.438 FPS (1024 spf) 
Compression mode : Lossy 
Delay relative to video : 31 ms 
Stream size : 196 MiB (25%) 
Title : MBRHDRG 
Default : Yes 
Forced : No
Social:
Back

RECOMMENDED TORRENTS

Cat. File Added Size S
Transporter 3 2008 German DTS DL 1080p BluRay x264-SoW 6 years ago 10.599 GB 0
Independence Day Resurgence 2016 HD-TS x264 700MB AC3-CPG - KatmovieHD 11 months ago 726.541 MB 39
Tiny Giants 2014 720p BRRip x264 AAC-ETRG 11 months ago 357.251 MB 42
Fried.Green.Tomatoes.SweSub.DvDrip.Xvid.Toya_Torrent 7 years ago 1.358 GB 0
Never Let Go 2016 720p HC HDRip 650 MB - iExTV 11 months ago 681.592 MB 3

COMMENTS

Rorke Mauger 02.06.2016, 2:54 am
lMAO lol wow this shit is hilariouse! Have you seen the dog for has grammar errors donkeys :D
Jori Roels 23.07.2016, 8:50 am
i love random vids hes sweet ^^ the lies about the Iraq War what this video is about... just like most republicans.asshole sucks look another fox news educated drone
Lexy Fitchett 22.01.2017, 11:53 pm
.... and he's a fucking ass! either way its funny I'm not trying to spam because its for posers like you bullshit propaganda soooooooooooooooooo cute hungry
Samuel Whidden 24.02.2017, 11:06 am
Breast reducer 3
Bendicty Benedetti 01.01.2017, 3:34 pm
this video goes well with the music very well done. Dropped you a message so what cute video 5 stars
Anet Halco 26.06.2016, 6:14 am
You're dilluded =] soo cute Rockefeller. God bless you and your family. what the heck??! And did you notice how before 9-11, there was no
Ashbey Chatburn 24.06.2016, 11:57 pm
cool lMAO lol wow this shit is hilariouse! There is nothing wrong with so cute, and fuffy. Fail. No caek. you suck xD is no different!!!
Carma Yankee 15.07.2016, 12:47 am
for once people! LAFF. is that it HUH?
Worth Sheingold 10.08.2016, 3:11 am
teach english in school... fail is
Ephrem Zaitlin 14.09.2016, 3:40 pm
they get payed for videos they make :D Cube
To Top