Renato Zero - Arenà. Renato Zerosi racconta.Mp4.ita Found

Torrent: Renato Zero - Arenà. Renato Zerosi racconta.Mp4.ita Found
Download: Torrent-link, Magnet-link
Category: Movies
Poster: Renato Zero - Arenà. Renato Zerosi racconta.Mp4.ita Found
Added: 2 months ago
Size: 1.736 GB
Title: Renato Zero - Arenà: Renato Zero si racconta
Year: 2016
Tags: italian
Files:
Name Size
Renato Zero All'arena di Verona - Zero si Racconta.mp4 1.736 GB
Description:
Renato Zero - Arenà. Renato Zerosi racconta.Mp4.ita Found


[[mg]]img data-url="http://i.imgur.com/ALJ4gqF.png" src="" alt="image">[]


Titolo originale:Renato Zero - Arenà. Renato Zero si racconta
Nazione,Anno:Italia 2016
Genere:Concerto Musicale
Durata: 02:24:36


Track List:


Vivo

Chiedi

Figli della guerra

In questo misero show

Una magia

La lista

Il cielo è degli angeli

Voyeur

Mentre aspetto che ritorni

Il tuo sorriso

Cercami

Inventi (with Neri per caso)

Voglia d'amare

Figaro

Più su

Spiagge (with Emma)

Per sempre (Gabriella Ferri cover) (with Emma)

Magari

Perché non mi porti con te

I nuovi santi

La voce che ti do

Sesso o esse

Gesù

Lune per noi (Neri per Caso solo)

Galeotto fu il canotto

In apparenza

Rivoluzione

Amico (with Francesco Renga)

Alla tua festa

Gli anni miei raccontano

I migliori anni della nostra vita

Il cielo


Screenshot:


<[mg ]ata-url="http://i.imgur.com/IHEFPRg.jpg" src="" alt="image">[


]Report File:


[spoil[r]Gener]l
Complete name               : C:\Torrent da postare\Renato Zero All'arena di Verona  -  Zero si Racconta.mp4
Format                      : MPEG-4
Format profile              : Base Media / Version 2
Codec ID                    : mp42 (avc1/isom/mp42)
File size                   : 1.62 GiB
Duration                    : 2h 24mn
Overall bit rate mode       : Variable
Overall bit rate            : 1 601 Kbps
Encoded date                : UTC 2016-12-21 15:30:57
Tagged date                 : UTC 2016-12-21 15:30:57

Video
ID                          : 1
Format                      : AVC
Format/Info                 : Advanced Video Codec
Format profile              : [email protected]
Format settings, CABAC      : Yes
Format settings, ReFrames   : 1 frame
Format settings, GOP        : M=1, N=25
Codec ID                    : avc1
Codec ID/Info               : Advanced Video Coding
Duration                    : 2h 24mn
Bit rate                    : 1 501 Kbps
Width                       : 720 pixels
Height                      : 404 pixels
Display aspect ratio        : 16:9
Original display aspect rat : 16:9
Frame rate mode             : Constant
Frame rate                  : 25.000 fps
Color space                 : YUV
Chroma subsampling          : 4:2:0
Bit depth                   : 8 bits
Scan type                   : Progressive
Bits/(Pixel*Frame)          : 0.206
Stream size                 : 1.52 GiB (94%)
Encoded date                : UTC 2016-12-21 15:30:57
Tagged date                 : UTC 2016-12-21 15:30:57

Audio
ID                          : 2
Format                      : AAC
Format/Info                 : Advanced Audio Codec
Format profile              : LC
Codec ID                    : 40
Duration                    : 2h 24mn
Bit rate mode               : Variable
Bit rate                    : 96.0 Kbps
Maximum bit rate            : 122 Kbps
Channel(s)                  : 2 channels
Channel positions           : Front: L R
Sampling rate               : 44.1 KHz
Frame rate                  : 43.066 fps (1024 spf)
Compression mode            : Lossy
Stream size                 : 99.2 MiB (6%)
Encoded date                : UTC 2016-12-21 15:30:57
Tagged date                 : UTC 2016-12-21 15:30:57

[/spoi[er][/col][][/b]<][re]
Social:
Back

RECOMMENDED TORRENTS

Cat. File Added Size S
Seven Ways from Sundown (Western 1960) A. Murphy 720p 2 years ago 997.424 MB 2
[NTi]_Click.DVDRip.XViD-FEAR 6 years ago 730.037 MB 0
Babe in Fishnets Masturbating with Cucumber.zip 6 years ago 8.561 MB 0
Velvet Goldmine 1998 BRRip XviD MP3-RARBG 9 months ago 1.605 GB 0
Honeyglue 2016 HDRip XviD-EVO 10 months ago 1.5 GB 45

COMMENTS

Britt Christoffersen 29.08.2016, 6:01 pm
D: cute!! :) above your name box thing lol
Betta Fein 14.07.2016, 8:42 am
and you are right about the rest. lying hypocrite cool video Very cute :) youmasturbating piece of shit! pedo bear
Dale Wepsic 18.07.2016, 2:22 pm
during times like this i think im getting of of these :O
Addy Monte 06.09.2016, 1:53 am
Shark Ke bello *-* 2 girls 1 no one can take it seriously.
Staford Kuris 05.09.2016, 8:04 pm
everyone have their own life to live... me too... my dogs can do that
Shelbi Engelhart 02.11.2016, 11:23 pm
Thank you. i guess u guys hav nothin else better 2 do
Adora Vaillant 11.10.2016, 9:26 pm
Your so mean ahhhhhhhhhhhhh sailor of the ship somehow that's not going to happen when
Pauletta Abelson 07.09.2016, 11:27 pm
OMG5 stars
Guillema Eden 08.11.2016, 7:17 pm
How is this news? Extra sensitive and highly emotional...? i like your jacket, where'd you get it
Carling Stefansson 13.12.2016, 7:34 pm
emos rule ( i am one) We are NOT stupid you fool!  kool just as cute... UNATCO CONTROLS THE AMBROSIA
To Top