The Spirit (2008).H264.Italian.English.Ac3.5.1.sub.ita.eng.iCV-MIRCrew

Torrent: The Spirit (2008).H264.Italian.English.Ac3.5.1.sub.ita.eng.iCV-MIRCrew
Download: Torrent-link, Magnet-link
Category: Movies
Poster: The Spirit (2008).H264.Italian.English.Ac3.5.1.sub.ita.eng.iCV-MIRCrew
Added: 2 months ago
Size: 1.69 GB
Title: The Spirit
IMDb: 4.8
Year: 2008
Tags: italian, english, h264, 2008
Files:
Name Size
The Spirit (2008).H264.ita.eng.sub.ita.eng.iCV-MIRCrew.mkv 1.69 GB
Description:
The Spirit (2008).H264.Italian.English.Ac3.5.1.sub.ita.eng.iCV-MIRCrew

[center]

image
NO FOUND ONLY ORIGINAL RELEASE

image

My release is always in double track audio italian and Original audio
for select it use VLC or dvd player home
not use wmp 

The Spirit (2008)

image

image 

image

    DATA USCITA: 25 dicembre 2008
    GENERE: Azione, Avventura
    ANNO: 2008
    REGIA: Frank Miller
    SCENEGGIATURA: Frank Miller
    FOTOGRAFIA: Bill Pope
    MONTAGGIO: Gregory Nussbaum
    MUSICHE: David Newman (II)
    PRODUZIONE: Lionsgate, Dark Lot Entertainment, Odd Lot Entertainment,
    DISTRIBUZIONE: Sony Pictures Releasing Italia,
    PAESE: USA
    DURATA: 103 Min
    FORMATO: 35MM

image


Scarlett Johansson, Eva Mendes, Samuel L. Jackson, Paz Vega, Jaime King, Gabriel Macht, Sarah Paulson, Dan Lauria, Johnny Simmons, Louis Lombardi, Richard Portnow, Stana Katic


image

The Spirit ingaggia una lotta senza tregua per sconfiggere questo assassino dal cuore di ghiaccio, inseguendolo nei macabri scenari di Central City, come i fatiscenti magazzini, le buie catacombe o le banchine battute dal vento.

image

Rookie cop Denny Colt returns from the beyond as The Spirit, a hero whose mission is to fight against the bad forces in Central City. 

image

image image image 

image


[spoiler]
General
Unique ID                                : 218539703899913997461601501210537374983 (0xA469374A52D026C78EC8649C1F403507)
Complete name                            : The Spirit (2008).H264.ita.eng.sub.ita.eng.iCV-MIRCrew.mkv
Format                                   : Matroska
Format version                           : Version 2
File size                                : 1.57 GiB
Duration                                 : 1h 42mn
Overall bit rate                         : 2 196 Kbps
Encoded date                             : UTC 2017-01-19T21:25:31Z
Writing application                      : HandBrake 0.10.5 2016021100
Writing library                          : Lavf55.12.0
By                                              : www.icv-crew.org

Video
ID                                       : 1
Format                                   : AVC
Format/Info                              : Advanced Video Codec
Format profile                           : [email protected]
Format settings, CABAC                   : Yes
Format settings, ReFrames                : 4 frames
Codec ID                                 : V_MPEG4/ISO/AVC
Duration                                 : 1h 42mn
Bit rate                                 : 1 385 Kbps
Nominal bit rate                         : 1 280 Kbps
Width                                    : 720 pixels
Height                                   : 308 pixels
Display aspect ratio                     : 2.35:1
Original display aspect ratio            : 2.35:1
Frame rate mode                          : Variable
Frame rate                               : 23.976 fps
Color space                              : YUV
Chroma subsampling                       : 4:2:0
Bit depth                                : 8 bits
Scan type                                : Progressive
Bits/(Pixel*Frame)                       : 0.260
Stream size                              : 1 016 MiB (63%)
Writing library                          : x264 core 142 r2479 dd79a61
Encoding settings                        : cabac=1 / ref=1 / deblock=1:0:0 / analyse=0x1:0x111 / me=hex / subme=2 / psy=1 / psy_rd=1.00:0.00 / mixed_ref=0 / me_range=16 / chroma_me=1 / trellis=0 / 8x8dct=0 / cqm=0 / deadzone=21,11 / fast_pskip=1 / chroma_qp_offset=0 / threads=12 / lookahead_threads=2 / sliced_threads=0 / nr=0 / decimate=1 / interlaced=0 / bluray_compat=0 / constrained_intra=0 / bframes=3 / b_pyramid=2 / b_adapt=1 / b_bias=0 / direct=1 / weightb=1 / open_gop=0 / weightp=1 / keyint=240 / keyint_min=24 / scenecut=40 / intra_refresh=0 / rc_lookahead=10 / rc=abr / mbtree=1 / bitrate=1280 / ratetol=1.0 / qcomp=0.60 / qpmin=0 / qpmax=69 / qpstep=4 / vbv_maxrate=20000 / vbv_bufsize=25000 / nal_hrd=none / filler=0 / ip_ratio=1.40 / aq=1:1.00
Default                                  : Yes
Forced                                   : No
Color primaries                          : BT.709-5, BT.1361, IEC 61966-2-4, SMPTE RP177
Transfer characteristics                 : BT.709-5, BT.1361
Matrix coefficients                      : BT.709-5, BT.1361, IEC 61966-2-4 709, SMPTE RP177

Audio #1
ID                                       : 2
Format                                   : AC-3
Format/Info                              : Audio Coding 3
Mode extension                           : CM (complete main)
Codec ID                                 : A_AC3
Duration                                 : 1h 42mn
Bit rate mode                            : Constant
Bit rate                                 : 384 Kbps
Channel(s)                               : 6 channels
Channel positions                        : Front: L C R, Side: L R, LFE
Sampling rate                            : 48.0 KHz
Bit depth                                : 16 bits
Compression mode                         : Lossy
Delay relative to video                  : 1mn 5s
Stream size                              : 282 MiB (17%)
Title                                    : Surround
Language                                 : Italian
Default                                  : Yes
Forced                                   : No

Audio #2
ID                                       : 3
Format                                   : AC-3
Format/Info                              : Audio Coding 3
Mode extension                           : CM (complete main)
Codec ID                                 : A_AC3
Duration                                 : 1h 42mn
Bit rate mode                            : Constant
Bit rate                                 : 384 Kbps
Channel(s)                               : 6 channels
Channel positions                        : Front: L C R, Side: L R, LFE
Sampling rate                            : 48.0 KHz
Bit depth                                : 16 bits
Compression mode                         : Lossy
Delay relative to video                  : 1mn 5s
Stream size                              : 282 MiB (17%)
Title                                    : Surround
Language                                 : English
Default                                  : No
Forced                                   : No

Text #1
ID                                       : 4
Format                                   : PGS
Codec ID                                 : S_HDMV/PGS
Codec ID/Info                            : The same subtitle format used on BDs/HD-DVDs
Language                                 : English
Default                                  : No
Forced                                   : No

Text #2
ID                                       : 5
Format                                   : PGS
Codec ID                                 : S_HDMV/PGS
Codec ID/Info                            : The same subtitle format used on BDs/HD-DVDs
Language                                 : Italian
Default                                  : No
Forced                                   : No

Text #3
ID                                       : 6
Format                                   : PGS
Codec ID                                 : S_HDMV/PGS
Codec ID/Info                            : The same subtitle format used on BDs/HD-DVDs
Language                                 : Italian
Default                                  : No
Forced                                   : No

Menu
00:00:00.000                             : :Chapter 1
00:06:31.224                             : :Chapter 2
00:12:39.467                             : :Chapter 3
00:16:44.003                             : :Chapter 4
00:23:41.420                             : :Chapter 5
00:30:18.525                             : :Chapter 6
00:37:25.409                             : :Chapter 7
00:42:18.619                             : :Chapter 8
00:48:24.234                             : :Chapter 9
00:56:32.263                             : :Chapter 10
01:00:56.819                             : :Chapter 11
01:15:14.134                             : :Chapter 12
01:20:16.019                             : :Chapter 13
01:24:03.204                             : :Chapter 14
01:27:56.563                             : :Chapter 15
01:33:18.134                             : :Chapter 16


[/spoiler]

[/b][/center]
Social:
Back

RECOMMENDED TORRENTS

Cat. File Added Size S
Seven Ways from Sundown (Western 1960) A. Murphy 720p 2 years ago 997.424 MB 2
[NTi]_Click.DVDRip.XViD-FEAR 6 years ago 730.037 MB 0
Babe in Fishnets Masturbating with Cucumber.zip 6 years ago 8.561 MB 0
Velvet Goldmine 1998 BRRip XviD MP3-RARBG 9 months ago 1.605 GB 0
Honeyglue 2016 HDRip XviD-EVO 10 months ago 1.5 GB 45

COMMENTS

Britt Christoffersen 29.08.2016, 6:01 pm
D: cute!! :) above your name box thing lol
Betta Fein 14.07.2016, 8:42 am
and you are right about the rest. lying hypocrite cool video Very cute :) youmasturbating piece of shit! pedo bear
Dale Wepsic 18.07.2016, 2:22 pm
during times like this i think im getting of of these :O
Addy Monte 06.09.2016, 1:53 am
Shark Ke bello *-* 2 girls 1 no one can take it seriously.
Staford Kuris 05.09.2016, 8:04 pm
everyone have their own life to live... me too... my dogs can do that
Shelbi Engelhart 02.11.2016, 11:23 pm
Thank you. i guess u guys hav nothin else better 2 do
Adora Vaillant 11.10.2016, 9:26 pm
Your so mean ahhhhhhhhhhhhh sailor of the ship somehow that's not going to happen when
Pauletta Abelson 07.09.2016, 11:27 pm
OMG5 stars
Guillema Eden 08.11.2016, 7:17 pm
How is this news? Extra sensitive and highly emotional...? i like your jacket, where'd you get it
Carling Stefansson 13.12.2016, 7:34 pm
emos rule ( i am one) We are NOT stupid you fool!  kool just as cute... UNATCO CONTROLS THE AMBROSIA
To Top