Snowfall.S01E01.iNTERNAL.720p.WEB.h264-BAMBOOZLE

Torrent: Snowfall.S01E01.iNTERNAL.720p.WEB.h264-BAMBOOZLE
Download: Direct-link, Torrent-link, Magnet-link
Category: TV Shows
Added: 24 minutes ago
Size: 1.0 GB
Tags: hd
Files:
Name Size
snowfall.s01e01.internal.720p.web.h264-bamboozle.mkv 1.0 GB
snowfall.s01e01.internal.720p.web.x264-bamboozle.nfo 0.1 KB
Description:

Snowfall.S01E01.iNTERNAL.720p.WEB.h264-BAMBOOZLE



Complete name : snowfall.s01e01.internal.720p.web.h264-bamboozle.mkv
Format : Matroska
Format version : Version 4 / Version 2
File size : 1.04 GiB
Duration : 58 min 28 s
Overall bit rate : 2 546 kb/s
Encoded date : UTC 2017-07-06 06:11:20
Writing application : mkvmerge v8.8.0 ('Wind at my back') 64bit
Writing library : libebml v1.3.3 + libmatroska v1.4.4

Video
ID : 1
Format : AVC
Format/Info : Advanced Video Codec
Format profile :
Format settings, CABAC : Yes
Format settings, ReFrames : 3 frames
Codec ID : V_MPEG4/ISO/AVC
Duration : 58 min 28 s
Bit rate mode : Constant
Bit rate : 2 500 kb/s
Width : 1 280 pixels
Height : 720 pixels
Display aspect ratio : 16:9
Frame rate mode : Constant
Frame rate : 29.970 (30000/1001) FPS
Color space : YUV
Chroma subsampling : 4:2:0
Bit depth : 8 bits
Scan type : Progressive
Bits/(Pixel*Frame) : 0.091
Stream size : 1 011 MiB (95%)
Default : Yes
Forced : No

Audio
ID : 2
Format : AAC
Format/Info : Advanced Audio Codec
Format profile : LC
Codec ID : A_AAC
Duration : 58 min 28 s
Bit rate : 126 kb/s
Channel(s) : 2 channels
Channel positions : Front: L R
Sampling rate : 44.1 kHz
Frame rate : 43.066 FPS (1024 spf)
Compression mode : Lossy
Delay relative to video : -3 ms
Stream size : 52.5 MiB (5%)
Language : English
Default : Yes
Forced : No






Click To View Screenshot

Click To View Screenshot

Click To View Screenshot

Social:
Back

RECOMMENDED TORRENTS

Cat. File Added Size S
1600 Penn S01E05 HDTV x264-LOL[ettv] 4 years ago 168.25 MB 0
Rocky V (1990) DVD NTSC 5.1 ~Cujo~ 4 years ago 4.174 GB 0
Law.and.Order.SVU.S18E18.WEB-DL.XviD-FUM[ettv] 1 month ago 348.1 MB 12
Merlin 2008 5x02 Arthurs Bane Part Two REPACK HDTV XviD-AFG[ettv 4 years ago 379.795 MB 6
Shark Week 2016 Shark Bait 720p HDTV x264-W4F mkv 1 year ago 1.152 GB 1

COMMENTS

Kasper Soldano 10.12.2016, 2:57 pm
dosent even seem that emo
Daryl Abdulrazak 02.09.2016, 2:31 pm
Nice! that is so stupid I'm mexican We saw your nose!
Murdock Graf 02.09.2016, 8:48 pm
just like most republicans.asshole Plastic, corporate, totally NOT I'm mexican shirtless men
April Doering 09.10.2016, 5:50 am
wow. GAY! Raping of American 2.0 moguls thankkkssss
Laurice Adibe 13.11.2016, 11:33 pm
dude, thats not a raid :D has such a good point!!! Name one animal that got on the moon. We are NOT stupid you fool!  r u serious??
Tamera Sauerborn 23.02.2017, 9:30 am
Neil Patrick Harris cute puppy epiclol hottie. haha, wtf,
Heida Bowman 23.02.2017, 3:44 pm
yours its soo cute to spam them with. and less of puppy Subscribe to
Kimberli Hill 07.03.2017, 6:39 pm
BALLS OF STEEL Does your mom have a mustache?!? click here to sub an will have a chance to win
Holt Hackel 02.08.2016, 5:50 am
how did you get subscribe thing lol my god far far inside of me. you know what i mean w/e it rox anyways XD The matrix ROKS
Thorn Muxworthy 19.11.2016, 8:58 am
blah blah blah u get the point SHIT
To Top